APACHE OF SITE
WELCOME TO THE APACHE OF SITE CAMES + SOFTWARE



 
HomePortalARCADEFAQSearchRegisterLog in

Share | 
 

 [FS] Transformers 3 Dark of the Moon (2011) CAMRip V2 700MB

View previous topic View next topic Go down 
AuthorMessage

toto
Members

Members



Birthday : 1992-02-26


 Join date : 2011-06-23
 Age : 24
 Country Flag : United States
             
PostSubject: [FS] Transformers 3 Dark of the Moon (2011) CAMRip V2 700MB   Sat Jul 02, 2011 7:02 am
 

Transformers 3 Dark of the Moon (2011) CAMRip V2 700MB Rip Xvid-Dj




Transformers 3 Dark of the Moon (2011) CAMRip V2 700MB Rip Xvid -=DJ=-
Description

Transformers 3 Dark of the Moon CAMRip V2 DJ


Quote:
Format : AVI
Format/Info : Audio Video Interleave
File size : 731 MiB
Duration : 2h 11mn
Overall bit rate : 777 Kbps
Writing application : Lavf52.37.0

Video
ID : 0
Format : MPEG-4 Visual
Format profile : Simple@L1
Format settings, BVOP : No
Format settings, QPel : No
Format settings, GMC : No warppoints
Format settings, Matrix : Default (H.263)
Codec ID : FMP4
Duration : 2h 11mn
Bit rate : 700 Kbps
Width : 624 pixels
Height : 272 pixels
Display aspect ratio : 2.35:1
Frame rate : 25.000 fps
Color space : YUV
Chroma subsampling : 4:2:0
Bit depth : 8 bits
Scan type : Progressive
Compression mode : Lossy
Bits/(Pixel*Frame) : 0.165
Stream size : 659 MiB (90%)
Writing library : Lavc52.32.0

Audio
ID : 1
Format : MPEG Audio
Format version : Version 1
Format profile : Layer 3
Mode : Joint stereo
Mode extension : MS Stereo
Codec ID : 55
Codec ID/Hint : MP3
Duration : 2h 11mn
Bit rate mode : Constant
Bit rate : 64.0 Kbps
Channel(s) : 2 channels
Sampling rate : 44.1 KHz
Compression mode : Lossy
Stream size : 60.2 MiB (8%)
Alignment : Aligned on interleaves
Interleave, duration : 26 ms (0.65 video frame)
Interleave, preload duration : 52 ms
Writing library : LAME3.98











hidden-2
Back to top Go down

travelma
Guest



            

PostSubject: 800000   Tue Jul 05, 2011 1:20 am
 

thanks
Back to top Go down

toto
Members

Members



Birthday : 1992-02-26


 Join date : 2011-06-23
 Age : 24
 Country Flag : United States
             
PostSubject: Re: [FS] Transformers 3 Dark of the Moon (2011) CAMRip V2 700MB   Tue Jul 05, 2011 7:33 am
 

thanks
Back to top Go down

ghacker
Members

Members



Birthday : 1974-04-21


 Join date : 2011-07-06
 Age : 42
 Country Flag : Greece
             
PostSubject: Re: [FS] Transformers 3 Dark of the Moon (2011) CAMRip V2 700MB   Thu Jul 07, 2011 10:38 am
 

POLI KALO
Back to top Go down

tassoslag
Members

Members



Birthday : 1984-04-01


 Join date : 2011-07-02
 Age : 32
 Country Flag : Greece
             
PostSubject: Re: [FS] Transformers 3 Dark of the Moon (2011) CAMRip V2 700MB   Tue Sep 13, 2011 1:53 pm
 

travelma wrote:
thanks
THANKS
Back to top Go down

giorgos xristina
Members

Members



Birthday : 1973-10-01


 Join date : 2011-10-28
 Age : 43
 Country Flag : Greece
             
PostSubject: Re: [FS] Transformers 3 Dark of the Moon (2011) CAMRip V2 700MB   Sun Nov 06, 2011 9:28 am
 

thankssssssssss
Back to top Go down

Sponsored content



            

PostSubject: Re: [FS] Transformers 3 Dark of the Moon (2011) CAMRip V2 700MB   Today at 5:37 am
 

Back to top Go down
 

[FS] Transformers 3 Dark of the Moon (2011) CAMRip V2 700MB

View previous topic View next topic Back to top 

 Similar topics

+
Page 1 of 1

Permissions in this forum:You cannot reply to topics in this forum
APACHE OF SITE :: Dvd Offers - Movies :: New International Dvd-
Jump to: