APACHE OF SITE
WELCOME TO THE APACHE OF SITE CAMES + SOFTWARE



 
HomePortalARCADEFAQSearchRegisterLog in

Share | 
 

 [FS] Quarantine 2 The Terminal 2011 VODRiP XviD-SiC one link

View previous topic View next topic Go down 
AuthorMessage

toto
Members

Members



Birthday : 1992-02-26


 Join date : 2011-06-23
 Age : 24
 Country Flag : United States
             
PostSubject: [FS] Quarantine 2 The Terminal 2011 VODRiP XviD-SiC one link   Sat Jun 25, 2011 6:33 am
 

Quarantine 2 The Terminal 2011 VODRiP XviD-SiC

iNFo:
Code:
http://in.bayw.org/title/tt1699231/

PLOT
A plane is taken over by a mysterious virus. When the plane lands it is
placed under quarantine. Now a group of survivors must band together to
survive the quarantine.


General
Complete name                    : E:\Quarantine.2.The.Terminal.2011.VODRiP.XviD-SiC.avi
Format                          : AVI
Format/Info                      : Audio Video Interleave
File size                        : 708 MiB
Duration                        : 1h 26mn
Overall bit rate                : 1 149 Kbps
Writing application              : Lavf52.22.1
Writing library                  : VirtualDub build 32842/release

Video
ID                              : 0
Format                          : MPEG-4 Visual
Format profile                  : Simple@L1
Format settings, BVOP            : No
Format settings, QPel            : No
Format settings, GMC            : No warppoints
Format settings, Matrix          : Default (H.263)
Codec ID                        : XVID
Codec ID/Hint                    : XviD
Duration                        : 1h 26mn
Bit rate                        : 1 008 Kbps
Width                            : 850 pixels
Height                          : 474 pixels
Display aspect ratio            : 16:9
Frame rate                      : 25.000 fps
Color space                      : YUV
Chroma subsampling              : 4:2:0
Bit depth                        : 8 bits
Scan type                        : Progressive
Compression mode                : Lossy
Bits/(Pixel*Frame)              : 0.100
Stream size                      : 621 MiB (88%)
Writing library                  : Lavc52.0.0

Audio
ID                              : 1
Format                          : MPEG Audio
Format version                  : Version 1
Format profile                  : Layer 3
Codec ID                        : 55
Codec ID/Hint                    : MP3
Duration                        : 1h 26mn
Bit rate mode                    : Constant
Bit rate                        : 128 Kbps
Channel(s)                      : 2 channels
Sampling rate                    : 44.1 KHz
Compression mode                : Lossy
Stream size                      : 78.9 MiB (11%)
Alignment                        : Aligned on interleaves
Interleave, duration            : 26 ms (0.65 video frame)
Interleave, preload duration    : 522 ms


fileserve:
hidden-887
Back to top Go down
 

[FS] Quarantine 2 The Terminal 2011 VODRiP XviD-SiC one link

View previous topic View next topic Back to top 

 Similar topics

+
Page 1 of 1

Permissions in this forum:You cannot reply to topics in this forum
APACHE OF SITE :: Dvd Offers - Movies :: New International Dvd-
Jump to: